<?xml version="1.0" standalone="no"?>
<!DOCTYPE svg PUBLIC "-//W3C//DTD SVG 1.1//EN" "http://www.w3.org/Graphics/SVG/1.1/DTD/svg11.dtd" >
<svg xmlns="http://www.w3.org/2000/svg" xmlns:xlink="http://www.w3.org/1999/xlink" version="1.1">
<metadata>
Created by FontForge 20170731 at Mon Feb  5 22:53:51 2018
 By Aleksey,,,
Copyright (c) 2018 by Rene' Bieder. All rights reserved.
</metadata>
<defs>
<font id="Franca-Book" horiz-adv-x="1228" >
  <font-face 
    font-family="Franca Book"
    font-weight="400"
    font-stretch="normal"
    units-per-em="2048"
    panose-1="2 1 0 3 4 0 0 0 0 0"
    ascent="1638"
    descent="-410"
    x-height="1085"
    cap-height="1434"
    bbox="-78 -348 2116 1638"
    underline-thickness="122"
    underline-position="-1019"
    unicode-range="U+0020-25FC"
  />
<missing-glyph horiz-adv-x="748" 
d="M68 0v1365h544v-1365h-544zM136 68h408v1229h-408v-1229z" />
    <glyph glyph-name=".notdef" horiz-adv-x="748" 
d="M68 0v1365h544v-1365h-544zM136 68h408v1229h-408v-1229z" />
    <glyph glyph-name="glyph1" horiz-adv-x="0" 
 />
    <glyph glyph-name="glyph2" horiz-adv-x="682" 
 />
    <glyph glyph-name="space" unicode=" " horiz-adv-x="491" 
 />
    <glyph glyph-name="exclam" unicode="!" horiz-adv-x="653" 
d="M256 516l-31 918h203l-27 -918h-145zM326 -10q-51 0 -82 30.5t-31 81.5t31 82t82 31t81.5 -31t30.5 -82t-30.5 -81.5t-81.5 -30.5z" />
    <glyph glyph-name="quotedbl" unicode="&#x22;" horiz-adv-x="747" 
d="M123 1434h174l-21 -480h-133zM451 1434h174l-21 -480h-133z" />
    <glyph glyph-name="numbersign" unicode="#" horiz-adv-x="1591" 
d="M1407 895h-254l-80 -369h236v-133h-265l-83 -393h-158l84 393h-334l-84 -393h-158l84 393h-211v133h240l80 369h-221v133h249l86 406h158l-86 -406h334l86 406h158l-86 -406h225v-133zM915 526l80 369h-333l-80 -369h333z" />
    <glyph glyph-name="dollar" unicode="$" 
d="M1110 426q0 -165 -115.5 -265.5t-322.5 -109.5l4 -235h-148l4 241q-163 22 -279 115.5t-155 269.5l144 37q59 -243 290 -293v482q-68 16 -116.5 31t-103 43t-88 63t-55.5 89.5t-22 123.5q0 153 101 250t284 114l-4 256h148l-4 -258q313 -27 391 -333l-152 -29
q-53 206 -241 233v-467q45 -10 71.5 -16t69.5 -18t68.5 -22.5t61 -27t57 -34.5t45.5 -43t37 -53.5t21.5 -65t8.5 -78.5zM297 1028q0 -88 60.5 -135.5t174.5 -77.5v438q-114 -13 -174.5 -74.5t-60.5 -150.5zM670 176q141 6 217 73.5t76 162.5q0 41 -16 74t-40.5 55.5t-65 41
t-79 30t-92.5 24.5v-461z" />
    <glyph glyph-name="percent" unicode="%" horiz-adv-x="1939" 
d="M510 1454q167 0 267 -107t100 -282q0 -176 -100.5 -283.5t-266.5 -107.5q-168 0 -267.5 107.5t-99.5 283.5t99.5 282.5t267.5 106.5zM430 0l473 733l426 701h148l-484 -748l-413 -686h-150zM510 784q106 0 166.5 74t60.5 207q0 134 -60 207.5t-167 73.5t-168 -73.5
t-61 -207.5q0 -133 61.5 -207t167.5 -74zM1430 760q167 0 266.5 -107t99.5 -282q0 -176 -100 -283.5t-266 -107.5q-168 0 -267.5 107.5t-99.5 283.5t99.5 282.5t267.5 106.5zM1430 90q106 0 166.5 74t60.5 207q0 134 -60 207t-167 73t-168.5 -73.5t-61.5 -206.5
q0 -132 61.5 -206.5t168.5 -74.5z" />
    <glyph glyph-name="ampersand" unicode="&#x26;" horiz-adv-x="1361" 
d="M1321 -12h-207l-125 135q-176 -143 -409 -143q-217 0 -349.5 107t-132.5 280q0 59 19 112t47 92t72 76t82.5 61.5t89.5 51.5q-88 100 -134.5 187t-46.5 173q0 148 103.5 241t263.5 93q159 0 265 -92.5t106 -241.5q0 -120 -84 -213.5t-269 -183.5l396 -410
q114 169 114 445h146q-18 -322 -178 -531zM596 1319q-97 0 -153 -51.5t-56 -141.5q0 -146 139 -309q136 66 207.5 137t71.5 172q0 90 -55.5 141.5t-153.5 51.5zM588 104q188 0 321 107l-415 455q-236 -119 -236 -297q0 -119 90.5 -192t239.5 -73z" />
    <glyph glyph-name="quotesingle" unicode="'" horiz-adv-x="419" 
d="M123 1434h174l-21 -480h-133z" />
    <glyph glyph-name="parenleft" unicode="(" horiz-adv-x="780" 
d="M553 -236q-173 179 -273 417.5t-100 500.5t99.5 499t271.5 416h145q-164 -192 -261 -427t-97 -488q0 -254 98 -490.5t262 -427.5h-145z" />
    <glyph glyph-name="parenright" unicode=")" horiz-adv-x="780" 
d="M227 -236h-145q164 191 262 427.5t98 490.5q0 253 -97 488t-261 427h145q172 -179 271.5 -416t99.5 -499t-100 -500.5t-273 -417.5z" />
    <glyph glyph-name="asterisk" unicode="*" horiz-adv-x="868" 
d="M766 1184l-262 -31l196 -213l-120 -84l-146 264l-145 -264l-121 84l199 213l-265 31l35 145l260 -108l-37 278h148l-37 -276l258 106z" />
    <glyph glyph-name="plus" unicode="+" 
d="M555 180v443h-446v120h446v449h125v-449h442v-120h-442v-443h-125z" />
    <glyph glyph-name="comma" unicode="," horiz-adv-x="563" 
d="M272 213q61 0 91 -38.5t30 -133.5q0 -77 -15.5 -142.5t-48 -119t-88 -87t-130.5 -40.5l-17 59q108 21 163.5 90t55.5 197q-12 -4 -32 -4q-52 0 -85.5 29.5t-33.5 78.5t28 80t82 31z" />
    <glyph glyph-name="hyphen" unicode="-" horiz-adv-x="806" 
d="M684 553h-561v125h561v-125z" />
    <glyph glyph-name="period" unicode="." horiz-adv-x="563" 
d="M281 -10q-51 0 -82 30.5t-31 81.5t31 82t82 31t81.5 -31t30.5 -82t-30.5 -81.5t-81.5 -30.5z" />
    <glyph glyph-name="slash" unicode="/" horiz-adv-x="1333" 
d="M61 0l562 760l477 674h172l-531 -719l-508 -715h-172z" />
    <glyph glyph-name="zero" unicode="0" 
d="M614 1454q249 0 384 -192t135 -547q0 -352 -135 -542.5t-384 -190.5t-383.5 190.5t-134.5 542.5q0 355 134.5 547t383.5 192zM614 1315q-188 0 -274 -148t-86 -452q0 -301 86 -447.5t274 -146.5t274.5 146.5t86.5 447.5q0 304 -86.5 452t-274.5 148z" />
    <glyph glyph-name="one" unicode="1" horiz-adv-x="876" 
d="M500 1434h139v-1434h-154v1290q-21 -26 -46 -51.5t-44.5 -43.5t-49.5 -40l-45 -33t-49 -31t-43 -25.5t-45 -25t-38 -20.5l-64 149q143 47 249.5 110.5t189.5 154.5z" />
    <glyph glyph-name="two" unicode="2" horiz-adv-x="1167" 
d="M291 133h807v-133h-1004v117l412 332q120 96 200.5 181.5t118.5 154t52 119t14 102.5q0 155 -79 235t-234 80q-28 0 -57.5 -5t-65.5 -18.5t-65.5 -36t-57.5 -57.5t-42 -84t-18.5 -114.5t13.5 -149.5h-174q-13 116 -4 205t44 155.5t80.5 112t106 73.5t120 40t122.5 12
q224 0 351.5 -115t127.5 -315q0 -75 -23.5 -145.5t-80 -155.5t-159.5 -184t-255 -215z" />
    <glyph glyph-name="three" unicode="3" horiz-adv-x="1269" 
d="M797 745q362 -61 362 -352q0 -185 -140 -298t-374 -113q-227 0 -369 113t-178 333l168 35q58 -359 385 -359q164 0 255 75.5t91 207.5q0 134 -94.5 210.5t-275.5 76.5h-129l-2 129h131q154 0 240.5 67.5t86.5 194.5q0 124 -83 195t-230 71q-152 0 -236 -84t-102 -243
l-158 30q31 215 159.5 317.5t336.5 102.5q222 0 347.5 -105.5t125.5 -277.5q0 -267 -317 -326z" />
    <glyph glyph-name="four" unicode="4" 
d="M1145 483v-127h-182v-356h-156l2 356h-772v123l702 955h224v-951h182zM809 1321l-610 -838h610v838z" />
    <glyph glyph-name="five" unicode="5" 
d="M694 944q196 0 315 -130.5t119 -344.5q0 -220 -136 -353.5t-359 -133.5q-208 0 -344.5 111.5t-163.5 289.5l149 35q20 -136 115.5 -224t245.5 -88q151 0 243.5 98.5t92.5 258.5q0 175 -81.5 262.5t-230.5 87.5q-109 0 -196 -59t-137 -136l-142 29q87 411 90 787l2 -2v2
h793v-136h-657q-5 -275 -84 -573q40 68 85.5 113.5t117.5 75.5t163 30z" />
    <glyph glyph-name="six" unicode="6" 
d="M659 924q207 0 335 -129.5t128 -339.5q0 -214 -136.5 -344.5t-360.5 -130.5q-111 0 -201 34.5t-152 96.5t-104 150.5t-61 194t-19 230.5q0 358 140 563t401 205q55 0 106 -8.5t107.5 -32t102.5 -59.5t85 -97t60 -139l-154 -41q-39 242 -305 242q-196 0 -292.5 -156
t-96.5 -473q66 107 173.5 170.5t243.5 63.5zM631 111q159 0 245.5 87t86.5 259q0 168 -86.5 252t-247.5 84q-241 0 -381 -244q45 -438 383 -438z" />
    <glyph glyph-name="seven" unicode="7" horiz-adv-x="1044" 
d="M1034 1434v-123q-76 -92 -127.5 -157t-108 -143.5t-93 -142.5t-73.5 -142.5t-58.5 -153.5t-39 -165.5t-24.5 -190.5t-6 -216h-193q17 413 149 702t453 598h-903v134h1024z" />
    <glyph glyph-name="eight" unicode="8" horiz-adv-x="1187" 
d="M788 768q160 -38 236 -136t76 -235q0 -187 -138.5 -301t-365.5 -114q-228 0 -368 114t-140 301q0 137 79.5 235t248.5 136q-277 67 -277 317q0 168 126 268.5t331 100.5t331 -100.5t126 -268.5q0 -116 -64.5 -199t-200.5 -118zM299 1083q0 -108 81 -178.5t216 -70.5
t215 70.5t80 178.5q0 114 -78 178t-217 64q-140 0 -218.5 -64t-78.5 -178zM596 111q161 0 252.5 79.5t91.5 215.5q0 124 -93 201t-251 77t-251 -77t-93 -201q0 -136 91.5 -215.5t252.5 -79.5z" />
    <glyph glyph-name="nine" unicode="9" 
d="M604 1460q111 0 201 -34.5t152 -96.5t104 -150.5t61 -194t19 -230.5q0 -358 -140 -563t-401 -205q-55 0 -106 8.5t-107.5 32t-102.5 59.5t-85 97t-60 139l154 40q39 -241 305 -241q196 0 292.5 156t96.5 473q-66 -107 -174 -170.5t-244 -63.5q-207 0 -335 129.5
t-128 339.5q0 214 137 344.5t361 130.5zM600 647q241 0 381 244q-45 438 -383 438q-159 0 -245.5 -87t-86.5 -259q0 -168 86.5 -252t247.5 -84z" />
    <glyph glyph-name="colon" unicode=":" horiz-adv-x="563" 
d="M281 870q-51 0 -82 31t-31 82t31 82t82 31t81.5 -31t30.5 -82t-30.5 -82t-81.5 -31zM281 -10q-51 0 -82 30.5t-31 81.5t31 82t82 31t81.5 -31t30.5 -82t-30.5 -81.5t-81.5 -30.5z" />
    <glyph glyph-name="semicolon" unicode=";" horiz-adv-x="563" 
d="M281 870q-51 0 -82 31t-31 82t31 82t82 31t81.5 -31t30.5 -82t-30.5 -82t-81.5 -31zM272 213q61 0 91 -38.5t30 -133.5q0 -77 -15.5 -142.5t-48 -119t-88 -87t-130.5 -40.5l-17 59q108 21 163.5 90t55.5 197q-12 -4 -32 -4q-52 0 -85.5 29.5t-33.5 78.5t28 80t82 31z" />
    <glyph glyph-name="less" unicode="&#x3c;" horiz-adv-x="1208" 
d="M948 1087v-137l-631 -272l631 -272v-140l-770 357v108z" />
    <glyph glyph-name="equal" unicode="=" 
d="M109 827v121h1013v-121h-1013zM109 418v121h1013v-121h-1013z" />
    <glyph glyph-name="greater" unicode="&#x3e;" horiz-adv-x="1208" 
d="M260 1087l770 -356v-108l-770 -357v140l631 272l-631 272v137z" />
    <glyph glyph-name="question" unicode="?" horiz-adv-x="1167" 
d="M614 1454q193 0 316 -99.5t123 -264.5q0 -69 -21.5 -125t-56 -93t-76 -67.5t-83.5 -55.5t-76.5 -50.5t-56 -60t-21.5 -75.5v-47h-164v29q0 64 21.5 113.5t55.5 80.5t75.5 57.5t82.5 52t75 54.5t55.5 74.5t21.5 103.5q0 109 -76 174.5t-197 65.5q-135 0 -208.5 -74
t-73.5 -188q0 -65 24 -133h-168q-20 75 -20 133q0 170 120.5 282.5t327.5 112.5zM578 -10q-51 0 -82 30.5t-31 81.5t31 82t82 31t81.5 -31t30.5 -82t-30.5 -81.5t-81.5 -30.5z" />
    <glyph glyph-name="at" unicode="@" horiz-adv-x="1585" 
d="M963 952h143v-538q0 -78 23 -104.5t71 -26.5q68 0 124 101.5t56 272.5q0 258 -153 414t-414 156q-279 0 -437.5 -179.5t-158.5 -490.5q0 -308 160 -470.5t457 -162.5q99 0 172.5 20.5t128 57.5t116.5 102l58 -118q-204 -170 -486 -170q-326 0 -523.5 202t-197.5 547
q0 227 88 401.5t249 270.5t372 96q199 0 352 -86.5t236.5 -242t83.5 -355.5q0 -222 -97 -348.5t-237 -126.5q-72 0 -119 39t-61 104q-96 -141 -242 -141q-147 0 -228 108t-81 289q0 179 81.5 288.5t227.5 109.5q137 0 236 -140v121zM762 299q61 0 114 29t87 82v325
q-32 53 -85 82t-116 29q-96 0 -147.5 -71.5t-51.5 -201.5t51.5 -202t147.5 -72z" />
    <glyph glyph-name="A" unicode="A" horiz-adv-x="1378" 
d="M1194 0l-113 293h-784l-113 -293h-164l555 1434h230l553 -1434h-164zM344 416h690l-344 893z" />
    <glyph glyph-name="B" unicode="B" horiz-adv-x="1390" 
d="M928 733q109 -14 183.5 -45.5t114 -78.5t56 -98.5t16.5 -117.5q0 -186 -122 -289.5t-342 -103.5h-650v1434h621q198 0 306 -96t108 -273q0 -52 -13.5 -99t-44.5 -93.5t-90.5 -83t-142.5 -56.5zM805 1300h-461v-509h424q134 0 210.5 71t76.5 195q0 117 -66 180t-184 63z
M834 133q143 0 222 69t79 195q0 269 -338 269h-453v-533h490z" />
    <glyph glyph-name="C" unicode="C" horiz-adv-x="1468" 
d="M768 127q184 0 309 98.5t176 268.5l154 -43q-66 -223 -229.5 -347t-409.5 -124q-153 0 -282.5 54t-220.5 150.5t-142 233t-51 297.5q0 216 87.5 384t246 261.5t362.5 93.5q246 0 409.5 -124t229.5 -347l-154 -43q-51 170 -176 268.5t-309 98.5q-233 0 -380.5 -165
t-147.5 -427q0 -260 147.5 -424t380.5 -164z" />
    <glyph glyph-name="D" unicode="D" horiz-adv-x="1474" 
d="M633 1434q390 0 580 -183.5t190 -533.5t-190 -533.5t-580 -183.5h-449v1434h449zM633 133q307 0 456.5 152t149.5 432t-149.5 431.5t-456.5 151.5h-285v-1167h285z" />
    <glyph glyph-name="E" unicode="E" horiz-adv-x="1329" 
d="M1196 1300h-848v-477h789v-133h-789v-557h848v-133h-1012v1434h1012v-134z" />
    <glyph glyph-name="F" unicode="F" horiz-adv-x="1239" 
d="M1167 1300h-819v-497h727v-133h-727v-670h-164v1434h983v-134z" />
    <glyph glyph-name="G" unicode="G" horiz-adv-x="1501" 
d="M885 705h545l-5 -87q-6 -126 -42 -230.5t-95.5 -179.5t-140 -126.5t-176 -76.5t-203.5 -25q-210 1 -368.5 93t-243 257.5t-84.5 382.5q0 337 189 539t507 202q220 0 380 -102.5t234 -284.5l-151 -59q-58 139 -180 219t-285 80q-240 0 -383 -163t-143 -431
q0 -264 143.5 -425t384.5 -161q77 0 145 15.5t128.5 49.5t105.5 85t74 126t36 168h-372v134z" />
    <glyph glyph-name="H" unicode="H" horiz-adv-x="1482" 
d="M1135 1434h163v-1434h-163v705h-787v-705h-164v1434h164v-596h787v596z" />
    <glyph glyph-name="I" unicode="I" horiz-adv-x="573" 
d="M205 0v1434h164v-1434h-164z" />
    <glyph glyph-name="J" unicode="J" horiz-adv-x="1073" 
d="M745 1434h164v-967q0 -258 -105 -372.5t-325 -114.5q-201 0 -305 95t-133 306l172 37q4 -149 76.5 -220t195.5 -71q127 0 193.5 79.5t66.5 260.5v967z" />
    <glyph glyph-name="K" unicode="K" horiz-adv-x="1392" 
d="M1362 1434l-551 -600l543 -834h-209l-449 709l-348 -379v-330h-164v1434h164v-936l795 936h219z" />
    <glyph glyph-name="L" unicode="L" horiz-adv-x="1212" 
d="M348 137h813v-137h-977v1434h164v-1297z" />
    <glyph glyph-name="M" unicode="M" horiz-adv-x="1865" 
d="M1415 1434h266v-1434h-163v1278l-484 -1278h-205l-481 1262v-1262h-164v1434h273l481 -1248z" />
    <glyph glyph-name="N" unicode="N" horiz-adv-x="1531" 
d="M1186 1434h162v-1434h-224l-778 1260v-1260h-162v1434h224l778 -1248v1248z" />
    <glyph glyph-name="O" unicode="O" horiz-adv-x="1536" 
d="M768 1454q153 0 282.5 -53.5t220.5 -149t142 -234t51 -302.5q0 -329 -193 -532t-503 -203t-503 203t-193 532q0 164 51 302.5t142 234t220.5 149t282.5 53.5zM768 127q234 0 381 162.5t147 425.5q0 265 -147 428.5t-381 163.5t-381 -163.5t-147 -428.5q0 -263 147 -425.5
t381 -162.5z" />
    <glyph glyph-name="P" unicode="P" horiz-adv-x="1329" 
d="M764 1434q240 0 372 -112.5t132 -313.5q0 -127 -70.5 -226.5t-184.5 -151.5t-249 -52h-416v-578h-164v1434h580zM774 711q156 0 243 81t87 216q0 132 -87.5 212t-242.5 80h-426v-589h426z" />
    <glyph glyph-name="Q" unicode="Q" horiz-adv-x="1536" 
d="M1538 -227h-248l-239 260q-127 -53 -283 -53q-310 0 -503 203t-193 532q0 164 51 302.5t142 234t220.5 149t282.5 53.5t282.5 -53.5t220.5 -149t142 -234t51 -302.5q0 -206 -80 -368t-223 -257zM240 715q0 -263 147 -425.5t381 -162.5t381 162.5t147 425.5
q0 265 -147 428.5t-381 163.5t-381 -163.5t-147 -428.5z" />
    <glyph glyph-name="R" unicode="R" horiz-adv-x="1439" 
d="M1180 428l127 -428h-193l-90 397q-30 128 -120.5 181.5t-254.5 56.5h-301v-635h-164v1434h647q204 0 325.5 -103t121.5 -284q0 -160 -106 -248t-324 -111q273 -57 332 -260zM348 768h443q144 0 233.5 80t89.5 201q0 111 -78 181t-205 70h-483v-532z" />
    <glyph glyph-name="S" unicode="S" horiz-adv-x="1292" 
d="M682 -18q-103 0 -194 23.5t-171.5 72.5t-139 134.5t-85.5 201.5l160 41q28 -119 97 -196t155 -107.5t192 -30.5q168 0 259.5 75t91.5 185q0 61 -31 106t-83 71.5t-119.5 46t-142 35t-149 33.5t-142 47t-119.5 69.5t-83 106.5t-31 153q0 186 132.5 295.5t367.5 109.5
q416 0 510 -373l-166 -32q-38 140 -124 202t-230 62q-157 0 -241.5 -71.5t-84.5 -180.5q0 -63 31 -108.5t83 -72.5t119 -46.5t142 -35t149.5 -33t141.5 -45.5t119 -68t83 -105t31 -152q0 -190 -139.5 -301.5t-388.5 -111.5z" />
    <glyph glyph-name="T" unicode="T" horiz-adv-x="1236" 
d="M1176 1434v-134h-476v-1300h-163v1300h-476v134h1115z" />
    <glyph glyph-name="U" unicode="U" horiz-adv-x="1474" 
d="M1147 1434h164v-875q0 -144 -42.5 -255.5t-119.5 -182t-181 -106t-231 -35.5t-231 35.5t-180.5 106t-119 182t-42.5 255.5v875h164v-875q0 -115 32.5 -200.5t90 -135t129 -73t157.5 -23.5t157.5 23.5t129.5 73t90.5 135t32.5 200.5v875z" />
    <glyph glyph-name="V" unicode="V" horiz-adv-x="1310" 
d="M1114 1434h186l-548 -1434h-193l-549 1434h187l465 -1276z" />
    <glyph glyph-name="W" unicode="W" horiz-adv-x="1949" 
d="M1753 1434h176l-338 -1434h-250l-366 1204l-367 -1204h-250l-338 1434h177l295 -1315l364 1315h238l364 -1315z" />
    <glyph glyph-name="X" unicode="X" horiz-adv-x="1247" 
d="M1227 0h-213l-400 629l-393 -629h-201l502 717l-489 717h203l397 -629l387 629h194l-489 -717z" />
    <glyph glyph-name="Y" unicode="Y" horiz-adv-x="1282" 
d="M1083 1434h179l-537 -832v-602h-170v600l-535 834h191l436 -729z" />
    <glyph glyph-name="Z" unicode="Z" horiz-adv-x="1304" 
d="M303 133h920v-133h-1131v119l909 1181h-897v134h1096v-121z" />
    <glyph glyph-name="bracketleft" unicode="[" horiz-adv-x="679" 
d="M598 1481h-260v-1600h260v-117h-414v1833h414v-116z" />
    <glyph glyph-name="backslash" unicode="\" horiz-adv-x="1333" 
d="M1272 0h-172l-508 715l-531 719h172l478 -674z" />
    <glyph glyph-name="bracketright" unicode="]" horiz-adv-x="679" 
d="M496 1597v-1833h-414v117h260v1600h-260v116h414z" />
    <glyph glyph-name="asciicircum" unicode="^" horiz-adv-x="960" 
d="M879 831h-162l-238 476l-239 -476h-158l336 603h125z" />
    <glyph glyph-name="underscore" unicode="_" horiz-adv-x="1019" 
d="M0 -117h1020v-116h-1020v116z" />
    <glyph glyph-name="a" unicode="a" horiz-adv-x="1083" 
d="M965 0h-164q-10 69 -10 172q-183 -192 -424 -192q-123 0 -204 74t-81 194q0 75 30.5 134t86.5 98t123 66t151 40.5t159.5 19.5t158.5 6v152q0 103 -62.5 159t-179.5 56q-110 0 -181.5 -49.5t-101.5 -171.5l-149 37q23 86 67 148.5t104 97t125.5 50t141.5 15.5
q184 0 284.5 -95t100.5 -268v-497q0 -127 25 -246zM401 119q113 0 219.5 52t170.5 132v199q-108 -2 -197.5 -13.5t-173 -37.5t-131 -75.5t-47.5 -119.5q0 -137 159 -137z" />
    <glyph glyph-name="b" unicode="b" horiz-adv-x="1183" 
d="M653 1106q204 0 321.5 -146t117.5 -413q0 -264 -113.5 -415.5t-325.5 -151.5q-93 0 -181 41.5t-153 125.5v-147h-155v1434h155v-494q65 83 153.5 124.5t180.5 41.5zM612 115q149 0 234.5 117t85.5 311q0 126 -31.5 220t-101.5 151t-172 57q-68 0 -120.5 -15t-102 -56
t-85.5 -109v-506q52 -91 124 -130.5t169 -39.5z" />
    <glyph glyph-name="c" unicode="c" horiz-adv-x="1103" 
d="M590 115q117 0 195 66.5t108 185.5l149 -37q-44 -162 -161.5 -256t-290.5 -94q-224 0 -361 159.5t-137 411.5q0 158 61 284t175 198.5t262 72.5q173 0 290.5 -94t161.5 -256l-149 -37q-30 119 -108 185.5t-195 66.5q-155 0 -248.5 -112.5t-93.5 -307.5q0 -202 93.5 -319
t248.5 -117z" />
    <glyph glyph-name="d" unicode="d" horiz-adv-x="1183" 
d="M864 1434h156v-1434h-156v147q-65 -84 -153 -125.5t-181 -41.5q-212 0 -325 151.5t-113 415.5q0 267 117 413t321 146q92 0 180.5 -41.5t153.5 -124.5v494zM571 115q97 0 169 39.5t124 130.5v506q-52 100 -128 140t-179 40q-102 0 -172 -57t-101.5 -151t-31.5 -220
q0 -194 85 -311t234 -117z" />
    <glyph glyph-name="e" unicode="e" horiz-adv-x="1150" 
d="M602 109q110 0 184 59t101 182l164 -41q-51 -172 -162.5 -250.5t-298.5 -78.5q-161 0 -275 77t-168.5 206.5t-54.5 299.5q0 243 133.5 393t362.5 150q226 0 347.5 -152t123.5 -432h-811q9 -197 100 -305t254 -108zM590 981q-147 0 -234 -88t-104 -250h641
q-6 161 -84.5 249.5t-218.5 88.5z" />
    <glyph glyph-name="f" unicode="f" horiz-adv-x="643" 
d="M575 1370q-213 0 -213 -264v-21h277v-124h-277v-961h-155v961h-166v124h166v21q0 197 95 293t288 96q87 0 160 -29l-45 -125q-54 29 -130 29z" />
    <glyph glyph-name="g" unicode="g" horiz-adv-x="1189" 
d="M870 1085h156v-981q0 -97 -26.5 -177t-81.5 -143t-147 -97.5t-214 -34.5q-185 0 -308.5 78t-156.5 229l146 45q10 -63 42.5 -109.5t78.5 -72t97 -37.5t107 -12q307 0 307 317v172q-65 -89 -155.5 -138.5t-192.5 -49.5q-195 0 -307.5 141t-112.5 375t112.5 375t307.5 141
q102 0 192.5 -49.5t155.5 -138.5v167zM555 209q97 0 181 53.5t134 145.5v362q-47 92 -132 146.5t-183 54.5q-139 0 -218 -103.5t-79 -277.5t79 -277.5t218 -103.5z" />
    <glyph glyph-name="h" unicode="h" horiz-adv-x="1169" 
d="M670 1106q160 0 258 -104.5t98 -282.5v-719h-156v717q0 122 -64.5 188t-182.5 66q-89 0 -169.5 -47t-134.5 -127v-797h-155v1434h155v-508q62 86 152 133t199 47z" />
    <glyph glyph-name="i" unicode="i" horiz-adv-x="483" 
d="M242 1266q-51 0 -82 30.5t-31 81.5t31 82t82 31t81.5 -31t30.5 -82t-30.5 -81.5t-81.5 -30.5zM164 0v1085h155v-1085h-155z" />
    <glyph glyph-name="j" unicode="j" horiz-adv-x="483" 
d="M242 1266q-51 0 -82 30.5t-31 81.5t31 82t82 31t81.5 -31t30.5 -82t-30.5 -81.5t-81.5 -30.5zM164 1085h155v-1044q0 -191 -88.5 -290t-253.5 -99q-37 0 -55 2v133q31 -10 70 -10q89 0 130.5 53t41.5 184v1071z" />
    <glyph glyph-name="k" unicode="k" horiz-adv-x="1134" 
d="M918 0l-418 532l-181 -163v-369h-155v1434h155v-918l578 569h213l-506 -456l510 -629h-196z" />
    <glyph glyph-name="l" unicode="l" horiz-adv-x="483" 
d="M164 1434h155v-1434h-155v1434z" />
    <glyph glyph-name="m" unicode="m" horiz-adv-x="1875" 
d="M1376 1106q160 0 258.5 -104.5t98.5 -282.5v-719h-156v717q0 121 -64.5 187.5t-183.5 66.5q-91 0 -172.5 -48.5t-134.5 -131.5q4 -46 4 -72v-719h-156v717q0 122 -64.5 188t-182.5 66q-89 0 -169.5 -47t-134.5 -127v-797h-155v1085h155v-159q62 86 152 133t199 47
q114 0 198 -54t125 -153q63 94 162 150.5t221 56.5z" />
    <glyph glyph-name="n" unicode="n" horiz-adv-x="1169" 
d="M670 1106q160 0 258 -104.5t98 -282.5v-719h-156v717q0 122 -64.5 188t-182.5 66q-89 0 -169.5 -47t-134.5 -127v-797h-155v1085h155v-159q62 86 152 133t199 47z" />
    <glyph glyph-name="o" unicode="o" horiz-adv-x="1179" 
d="M590 1106q148 0 261.5 -72.5t174.5 -198.5t61 -284q0 -253 -136.5 -412t-360.5 -159t-361 159.5t-137 411.5q0 158 61 284t175 198.5t262 72.5zM590 115q155 0 248.5 117t93.5 319q0 195 -93.5 307.5t-248.5 112.5t-248.5 -112.5t-93.5 -307.5q0 -202 93.5 -319
t248.5 -117z" />
    <glyph glyph-name="p" unicode="p" horiz-adv-x="1183" 
d="M653 1106q212 0 325.5 -151.5t113.5 -415.5q0 -267 -117.5 -413t-321.5 -146q-93 0 -181 41t-153 124v-473h-155v1413h155v-147q65 84 153 126t181 42zM627 115q102 0 172 57t101.5 151t31.5 220q0 194 -85.5 311t-234.5 117q-97 0 -169 -39.5t-124 -130.5v-506
q36 -68 85.5 -109t102 -56t120.5 -15z" />
    <glyph glyph-name="q" unicode="q" horiz-adv-x="1183" 
d="M864 1085h156v-1413h-156v473q-65 -83 -153 -124t-181 -41q-204 0 -321 146t-117 413q0 264 113 415.5t325 151.5q93 0 181 -42t153 -126v147zM557 115q103 0 179 40t128 140v506q-52 91 -124 130.5t-169 39.5q-149 0 -234 -117t-85 -311q0 -126 31.5 -220t101.5 -151
t172 -57z" />
    <glyph glyph-name="r" unicode="r" horiz-adv-x="792" 
d="M319 838q53 130 156 195t277 65v-156q-161 22 -269 -44t-164 -204v-694h-155v1085h155v-247z" />
    <glyph glyph-name="s" unicode="s" horiz-adv-x="1042" 
d="M537 -20q-72 0 -139.5 17t-132.5 53.5t-116 103t-77 157.5l153 39q69 -246 326 -246q123 0 190.5 47t67.5 132q0 60 -38.5 97.5t-100.5 54.5t-136.5 29.5t-149 31.5t-136.5 50t-100.5 95t-38.5 158q0 138 108 222.5t285 84.5q158 0 264 -69.5t143 -217.5l-147 -35
q-42 197 -264 197q-109 0 -176.5 -48t-67.5 -126q0 -61 38.5 -100t100 -57t135.5 -31t148 -31t135.5 -48.5t100 -92.5t38.5 -154q0 -152 -112.5 -232.5t-300.5 -80.5z" />
    <glyph glyph-name="t" unicode="t" horiz-adv-x="704" 
d="M635 133l39 -125q-64 -28 -152 -28q-155 0 -229 80t-74 247v654h-178v124h178v349h156v-349h274v-124h-274v-654q0 -107 31 -155t108 -48q67 0 121 29z" />
    <glyph glyph-name="u" unicode="u" horiz-adv-x="1169" 
d="M850 1085h156v-1085h-156v160q-131 -180 -350 -180q-160 0 -258.5 104.5t-98.5 282.5v718h156v-716q0 -121 64.5 -187.5t183.5 -66.5q89 0 169 47t134 127v796z" />
    <glyph glyph-name="v" unicode="v" horiz-adv-x="1019" 
d="M821 1085h178l-409 -1085h-160l-410 1085h179l309 -942z" />
    <glyph glyph-name="w" unicode="w" horiz-adv-x="1536" 
d="M1346 1085h159l-286 -1085h-185l-262 879l-256 -879h-199l-286 1085h162l225 -950l258 950h201l256 -946z" />
    <glyph glyph-name="x" unicode="x" horiz-adv-x="950" 
d="M23 0l352 541l-355 544h181l278 -460l271 460h180l-357 -540l357 -545h-180l-279 453l-270 -453h-178z" />
    <glyph glyph-name="y" unicode="y" horiz-adv-x="999" 
d="M801 1085h178l-528 -1413h-205l188 316l-414 1097h181l303 -917z" />
    <glyph glyph-name="z" unicode="z" horiz-adv-x="1019" 
d="M266 129h672v-129h-856v113l670 843h-650v129h820v-127z" />
    <glyph glyph-name="braceleft" unicode="{" horiz-adv-x="753" 
d="M475 1059q0 -183 -51.5 -268t-159.5 -109q108 -26 159.5 -111t51.5 -268v-252q0 -85 46.5 -127.5t113.5 -42.5h57v-117h-57q-141 0 -227 71t-86 216v252q0 79 -14.5 136t-37 88.5t-57 50t-65.5 23.5t-72 5h-15v150h15q41 0 72 5t65.5 23.5t57 50t37 88.5t14.5 136v252
q0 145 86 215.5t227 70.5h57v-116h-57q-67 0 -113.5 -42.5t-46.5 -127.5v-252z" />
    <glyph glyph-name="bar" unicode="|" horiz-adv-x="645" 
d="M246 1597h153v-1833h-153v1833z" />
    <glyph glyph-name="braceright" unicode="}" horiz-adv-x="753" 
d="M678 756h14v-150h-14q-41 0 -72 -5t-65.5 -23.5t-57 -50t-37 -88.5t-14.5 -136v-252q0 -145 -86 -216t-227 -71h-58v117h58q67 0 113.5 42.5t46.5 127.5v252q0 183 51 268t159 111q-108 24 -159 109t-51 268v252q0 85 -46.5 127.5t-113.5 42.5h-58v116h58
q141 0 227 -70.5t86 -215.5v-252q0 -79 14.5 -136t37 -88.5t57 -50t65.5 -23.5t72 -5z" />
    <glyph glyph-name="asciitilde" unicode="~" 
d="M295 535l-119 24q13 98 67.5 160.5t157.5 62.5q64 0 139 -27.5t142.5 -55t112.5 -27.5q65 0 99.5 32t41.5 76l117 -22q-11 -101 -65.5 -163.5t-156.5 -62.5q-65 0 -140.5 28t-143 55.5t-111.5 27.5q-64 0 -98 -31t-43 -77z" />
    <glyph glyph-name="uni00A0" unicode="&#xa0;" horiz-adv-x="491" 
 />
    <glyph glyph-name="cent" unicode="&#xa2;" 
d="M696 211q93 17 155 81.5t89 166.5l150 -37q-41 -148 -142.5 -239.5t-249.5 -106.5l4 -240h-147l4 242q-191 28 -305.5 182.5t-114.5 382.5q0 219 114 370t304 179l-2 242h147l-4 -240q150 -15 251.5 -107t140.5 -239l-150 -37q-27 102 -89 166.5t-155 81.5v-848zM295 643
q0 -175 70.5 -287.5t193.5 -140.5v840q-123 -27 -193.5 -135t-70.5 -277z" />
    <glyph glyph-name="sterling" unicode="&#xa3;" 
d="M330 125h794v-125h-989v143q170 73 246 143.5t76 174.5q0 50 -21 104h-305v109h238q-8 9 -39 46.5t-42.5 52t-34.5 50.5t-32.5 62.5t-18.5 66.5t-9 82q0 182 131 301t344 119q127 0 236 -47.5t177 -146.5l-116 -95q-92 148 -283 148q-149 0 -239.5 -79.5t-90.5 -197.5
q0 -50 20.5 -103t41.5 -85.5t65 -91t60 -82.5h424v-109h-363q18 -56 18 -98q0 -56 -23 -106t-73 -95t-81.5 -68t-93.5 -62q-11 -7 -17 -11z" />
    <glyph glyph-name="yen" unicode="&#xa5;" 
d="M1235 1434l-465 -719h291v-113h-363v-153h363v-113h-363v-336h-170v336h-360v113h360v151l-2 2h-358v113h287l-461 719h190l437 -729l436 729h178z" />
    <glyph glyph-name="copyright" unicode="&#xa9;" horiz-adv-x="1634" 
d="M815 -12q-157 0 -293.5 56t-233 153t-151.5 233t-55 291q0 208 94.5 375.5t263 262.5t379.5 95q157 0 293.5 -55.5t233 -152t151.5 -231.5t55 -290q0 -156 -55.5 -293t-152 -234.5t-234 -153.5t-295.5 -56zM815 84q178 0 322.5 84.5t225.5 231t81 325.5q0 177 -81 322
t-224.5 228t-319.5 83q-177 0 -320.5 -83.5t-224.5 -229.5t-81 -324q0 -133 47 -251t129 -203t198 -134t248 -49zM829 319q-164 0 -265 109.5t-101 288.5q0 181 100.5 291t265.5 110q126 0 213 -66.5t121 -189.5l-94 -22q-25 91 -87 139.5t-153 48.5q-120 0 -193 -85.5
t-73 -225.5q0 -138 73 -222.5t193 -84.5q91 0 153 48.5t87 139.5l94 -23q-34 -123 -121 -189.5t-213 -66.5z" />
    <glyph glyph-name="guillemotleft" unicode="&#xab;" horiz-adv-x="962" 
d="M106 616q214 178 263 355h143q-53 -190 -287 -375q234 -185 287 -375h-143q-49 176 -263 354v41zM434 616q213 177 262 355h144q-53 -190 -287 -375q234 -185 287 -375h-144q-49 177 -262 354v41z" />
    <glyph glyph-name="uni00AD" unicode="&#xad;" horiz-adv-x="806" 
d="M684 553h-561v125h561v-125z" />
    <glyph glyph-name="registered" unicode="&#xae;" horiz-adv-x="1077" 
d="M541 1454q192 0 323 -133.5t131 -325.5q0 -191 -131.5 -321.5t-322.5 -130.5q-192 0 -325.5 130t-133.5 322q0 125 61 230.5t166.5 167t231.5 61.5zM541 608q165 0 274 109t109 282q0 171 -108.5 280.5t-276.5 109.5t-274.5 -110.5t-106.5 -281.5q0 -173 109 -281
t274 -108zM625 989q64 -24 88 -90l37 -123h-76l-25 113q-19 73 -127 76h-82v-189h-71v453h225q70 0 107 -39t34 -90q-6 -78 -110 -111zM440 1026h142q36 0 58 20.5t22 55.5q0 30 -18.5 47.5t-49.5 17.5h-154v-141z" />
    <glyph glyph-name="guillemotright" unicode="&#xbb;" horiz-adv-x="962" 
d="M528 616v-41q-213 -177 -262 -354h-143q53 190 287 375q-234 185 -287 375h143q49 -178 262 -355zM856 616v-41q-213 -177 -262 -354h-143q53 191 286 375q-233 184 -286 375h143q49 -178 262 -355z" />
    <glyph glyph-name="uni2000" unicode="&#x2000;" horiz-adv-x="819" 
 />
    <glyph glyph-name="uni2001" unicode="&#x2001;" horiz-adv-x="1638" 
 />
    <glyph glyph-name="uni2002" unicode="&#x2002;" horiz-adv-x="819" 
 />
    <glyph glyph-name="uni2003" unicode="&#x2003;" horiz-adv-x="1638" 
 />
    <glyph glyph-name="uni2004" unicode="&#x2004;" horiz-adv-x="546" 
 />
    <glyph glyph-name="uni2005" unicode="&#x2005;" horiz-adv-x="409" 
 />
    <glyph glyph-name="uni2006" unicode="&#x2006;" horiz-adv-x="273" 
 />
    <glyph glyph-name="uni2007" unicode="&#x2007;" horiz-adv-x="273" 
 />
    <glyph glyph-name="uni2008" unicode="&#x2008;" horiz-adv-x="204" 
 />
    <glyph glyph-name="uni2009" unicode="&#x2009;" horiz-adv-x="327" 
 />
    <glyph glyph-name="uni200A" unicode="&#x200a;" horiz-adv-x="91" 
 />
    <glyph glyph-name="uni2010" unicode="&#x2010;" horiz-adv-x="806" 
d="M684 553h-561v125h561v-125z" />
    <glyph glyph-name="uni2011" unicode="&#x2011;" horiz-adv-x="806" 
d="M684 553h-561v125h561v-125z" />
    <glyph glyph-name="figuredash" unicode="&#x2012;" horiz-adv-x="806" 
d="M684 553h-561v125h561v-125z" />
    <glyph glyph-name="endash" unicode="&#x2013;" 
d="M72 506v123h1085v-121z" />
    <glyph glyph-name="emdash" unicode="&#x2014;" horiz-adv-x="2187" 
d="M72 506v123h2044v-121z" />
    <glyph glyph-name="quoteleft" unicode="&#x2018;" horiz-adv-x="542" 
d="M272 1112q52 0 85.5 -29.5t33.5 -78.5t-28 -80t-82 -31q-61 0 -91 38.5t-30 133.5q0 77 15.5 142.5t48 119t88 87t130.5 40.5l17 -59q-108 -21 -163.5 -90t-55.5 -197q12 4 32 4z" />
    <glyph glyph-name="quoteright" unicode="&#x2019;" horiz-adv-x="542" 
d="M262 1440q61 0 91 -38.5t30 -133.5q0 -77 -16 -142.5t-48.5 -119t-88 -87t-130.5 -40.5l-16 59q108 21 163.5 90t55.5 197q-12 -4 -33 -4q-52 0 -85 29.5t-33 78.5t28 80t82 31z" />
    <glyph glyph-name="quotesinglbase" unicode="&#x201a;" horiz-adv-x="542" 
d="M262 213q61 0 91 -38.5t30 -133.5q0 -77 -16 -142.5t-48.5 -119t-88 -87t-130.5 -40.5l-16 59q108 21 163.5 90t55.5 197q-12 -4 -33 -4q-52 0 -85 29.5t-33 78.5t28 80t82 31z" />
    <glyph glyph-name="quotedblleft" unicode="&#x201c;" horiz-adv-x="911" 
d="M459 1395q-108 -21 -163.5 -90t-55.5 -197q12 4 32 4q52 0 85.5 -29.5t33.5 -78.5t-28 -80t-82 -31q-61 0 -91 38.5t-30 133.5q0 77 15.5 142.5t48 119t88 87t130.5 40.5zM641 1112q52 0 85.5 -29.5t33.5 -78.5t-28.5 -80t-82.5 -31q-61 0 -91 38.5t-30 133.5
q0 77 16 142.5t48.5 119t88 87t130.5 40.5l16 -59q-108 -21 -163.5 -90t-55.5 -197q12 4 33 4z" />
    <glyph glyph-name="quotedblright" unicode="&#x201d;" horiz-adv-x="911" 
d="M262 1440q61 0 91 -38.5t30 -133.5q0 -77 -16 -142.5t-48.5 -119t-88 -87t-130.5 -40.5l-16 59q108 21 163.5 90t55.5 197q-12 -4 -33 -4q-52 0 -85 29.5t-33 78.5t28 80t82 31zM631 1440q61 0 91 -38.5t30 -133.5q0 -77 -16 -142.5t-48.5 -119t-88 -87t-130.5 -40.5
l-16 59q108 21 163.5 90t55.5 197q-12 -4 -33 -4q-52 0 -85.5 29.5t-33.5 78.5t28.5 80t82.5 31z" />
    <glyph glyph-name="quotedblbase" unicode="&#x201e;" horiz-adv-x="911" 
d="M262 213q61 0 91 -38.5t30 -133.5q0 -77 -16 -142.5t-48.5 -119t-88 -87t-130.5 -40.5l-16 59q108 21 163.5 90t55.5 197q-12 -4 -33 -4q-52 0 -85 29.5t-33 78.5t28 80t82 31zM631 213q61 0 91 -38.5t30 -133.5q0 -77 -16 -142.5t-48.5 -119t-88 -87t-130.5 -40.5
l-16 59q108 21 163.5 90t55.5 197q-12 -4 -33 -4q-52 0 -85.5 29.5t-33.5 78.5t28.5 80t82.5 31z" />
    <glyph glyph-name="ellipsis" unicode="&#x2026;" horiz-adv-x="1478" 
d="M281 -10q-51 0 -82 30.5t-31 81.5t31 82t82 31t81.5 -31t30.5 -82t-30.5 -81.5t-81.5 -30.5zM739 -10q-51 0 -81.5 30.5t-30.5 81.5t30.5 82t81.5 31t82 -31t31 -82t-31 -81.5t-82 -30.5zM1196 -10q-51 0 -82 30.5t-31 81.5t31 82t82 31t82 -31t31 -82t-31 -81.5
t-82 -30.5z" />
    <glyph glyph-name="uni202F" unicode="&#x202f;" horiz-adv-x="327" 
 />
    <glyph glyph-name="guilsinglleft" unicode="&#x2039;" horiz-adv-x="634" 
d="M106 616q214 178 263 355h143q-53 -190 -287 -375q234 -185 287 -375h-143q-49 176 -263 354v41z" />
    <glyph glyph-name="guilsinglright" unicode="&#x203a;" horiz-adv-x="634" 
d="M528 616v-41q-213 -177 -262 -354h-143q53 190 287 375q-234 185 -287 375h143q49 -178 262 -355z" />
    <glyph glyph-name="uni205F" unicode="&#x205f;" horiz-adv-x="409" 
 />
    <glyph glyph-name="Euro" unicode="&#x20ac;" 
d="M799 100q157 0 237 123l99 -108q-132 -135 -336 -135q-221 0 -375 148t-193 413h-188v108h178q-2 20 -2 66q0 36 4 106h-180v109h195q49 250 199 387t362 137q230 0 368 -172l-114 -92q-81 145 -254 145q-154 0 -257.5 -104.5t-140.5 -300.5h473l-45 -109h-442
q-4 -70 -4 -106q0 -46 2 -66h373l-45 -108h-318q31 -212 137 -326.5t267 -114.5z" />
    <glyph glyph-name="trademark" unicode="&#x2122;" horiz-adv-x="1458" 
d="M61 1341v95h517v-95h-201v-532h-113v532h-203zM1180 1436h176v-627h-113v528l-186 -528h-99l-188 530v-530h-102v627h163l177 -492z" />
    <glyph glyph-name="uni25FC" unicode="&#x25fc;" horiz-adv-x="1085" 
d="M0 1085h1085v-1085h-1085v1085z" />
    </font>
</defs>
</svg>
